» » The Breit Bros. - The Breit Bros

The Breit Bros. - The Breit Bros mp3 album

The Breit Bros. - The Breit Bros mp3 album
  • Performer: The Breit Bros.
  • Title: The Breit Bros
  • Genre: Rock
  • Country: US
  • Date of release: 1988
  • MP3 size: 1520 mb
  • FLAC size 1653 mb
  • Formats MP2 MP4 AA ASF MP3 DTS VOX

Complete your The Breit Bros.

The Breit Bros (1988) or any other file from Music category.

3 years ago. Braincrack Bros podcast 16 mixed by The Beardbrosby RESURRECTION. 4. Playing tracks by. Igneon System & The Clamps, The Outside Agency, Switch Technique & Ambassador21, Dither ft The Outside Agency, Bratkilla and more. This show was 42nd in the global hardcore chart.

youll never be without me. feel my body shaking.

Release: The Breit Bros. net/file/V4DM/The Breit Bros. Chiara Robiony-Boulevard 17-LFA.

You can Download Free The Breit Bros. The Breit Bros zip or rar archives. The Breit Bros ‎(LP, Album). RCA Victor, BMG Music Canada INC. 8410-1-R.

Tracklist

Going Down
Hold Me Right
You'll Never Be Without Me
Slow Train
Run From The Fire
One's Man Climate
Wide World
Magdalene
Cause We Had It All
Feel My Body Shaking

Versions

Category Artist Title (Format) Label Category Country Year
8410-2-R The Breit Bros. The Breit Bros ‎(CD, Album) BMG 8410-2-R US 1988
8410-4-R The Breit Bros. The Breit Bros ‎(Cass, Album) BMG, RCA 8410-4-R Canada 1988
8410-4-R The Breit Bros. The Breit Bros ‎(Cass, Album) BMG, RCA 8410-4-R US 1988
8410-1-R The Breit Bros. The Breit Bros ‎(LP, Album) RCA Victor, BMG Music Canada INC. 8410-1-R Canada 1988
8410-1-R The Breit Bros. The Breit Bros ‎(LP, Album) BMG 8410-1-R US 1988
Comments: (1)
Ral
foobar2000 1.3.17 / Dynamic Range Meter 1.1.1log date: 2019-02-10 18:38:30--------------------------------------------------------------------------------Analyzed: Breit Bros / The Breit Bros.--------------------------------------------------------------------------------DR Peak RMS Duration Track--------------------------------------------------------------------------------DR12 -0.05 dB -13.97 dB 4:19 01-Going DownDR12 -0.53 dB -15.76 dB 4:30 02-Hold Me RightDR12 -0.18 dB -14.94 dB 4:40 03-You'll Never Be Without MeDR12 -2.50 dB -16.76 dB 4:51 04-Slow TrainDR11 -4.71 dB -17.71 dB 4:20 05-Run From The FireDR12 -0.20 dB -14.72 dB 5:29 06-One Man's ClimateDR12 -1.29 dB -15.79 dB 4:35 07-Wide WorldDR12 -0.20 dB -16.19 dB 4:09 08-MagdaleneDR11 -2.59 dB -17.09 dB 4:06 09-'Cause We Had It AllDR11 -2.08 dB -15.17 dB 4:55 10-Feel My Body Shaking--------------------------------------------------------------------------------Number of tracks: 10Official DR value: DR12Samplerate: 44100 HzChannels: 2Bits per sample: 16Bitrate: 899 kbpsCodec: ALAC================================================================================
MP3 albums Related at The Breit Bros. - The Breit Bros
Contacts | Privacy Policy | DMCA
All rights reserved.
cymru.mosonline.uk © 2016-2019